Ultimas Peliculas :
Home » » The Great Gatsby (2013) Solo Audio Latino Ligero (eLMuer12)

The Great Gatsby (2013) Solo Audio Latino Ligero (eLMuer12)


Audio Latino Ligero ByeLMuer12.m4a
Format                                   : MPEG-4
Format profile                           : Base Media / Version 2
Codec ID                                 : mp42
File size                                : 65.7 MiB
Duration                                 : 2h 22mn
Overall bit rate mode                    : Variable
Overall bit rate                         : 64.7 Kbps
Encoded date                             : UTC 2013-08-10 18:12:58
Tagged date                              : UTC 2013-08-10 18:23:13

Audio
ID                                       : 1
Format                                   : AAC
Format/Info                              : Advanced Audio Codec
Format profile                           : HE-AAC / LC
Codec ID                                 : 40
Duration                                 : 2h 22mn
Bit rate mode                            : Variable
Bit rate                                 : 64.0 Kbps
Maximum bit rate                         : 98.2 Kbps
Channel(s)                               : 2 channels
Channel positions                        : Front: L R
Sampling rate                            : 44.1 KHz / 22.05 KHz
Compression mode                         : Lossy
Stream size                              : 65.0 MiB (99%)
Writing library                          : Nero AAC codec 1.5.4.0
Encoding settings                        : -br 64000 -he
Encoded date                             : UTC 2013-08-10 18:12:58
Tagged date                              : UTC 2013-08-10 18:23:13
Pass: elmuer12
℗By eLM
- See more at: http://www.identi.li/index.php?topic=236482#sthash.ZVd1ky2U.dpuf
    Audio Latino Ligero ByeLMuer12.m4a

    Format                                   : MPEG-4
    Format profile                           : Base Media / Version 2
    Codec ID                                 : mp42
    File size                                : 65.7 MiB
    Duration                                 : 2h 22mn
    Overall bit rate mode                    : Variable
    Overall bit rate                         : 64.7 Kbps
    Encoded date                             : UTC 2013-08-10 18:12:58
    Tagged date                              : UTC 2013-08-10 18:23:13

    Audio
    ID                                       : 1
    Format                                   : AAC
    Format/Info                              : Advanced Audio Codec
    Format profile                           : HE-AAC / LC
    Codec ID                                 : 40
    Duration                                 : 2h 22mn
    Bit rate mode                            : Variable
    Bit rate                                 : 64.0 Kbps
    Maximum bit rate                         : 98.2 Kbps
    Channel(s)                               : 2 channels
    Channel positions                        : Front: L R
    Sampling rate                            : 44.1 KHz / 22.05 KHz
    Compression mode                         : Lossy
    Stream size                              : 65.0 MiB (99%)
    Writing library                          : Nero AAC codec 1.5.4.0
    Encoding settings                        : -br 64000 -he
    Encoded date                             : UTC 2013-08-10 18:12:58
    Tagged date                              : UTC 2013-08-10 18:23:13
Pass: elmuer12
℗By eLM
Audio Latino Ligero ByeLMuer12.m4a (65.7 MB)
https://mega.co.nz/#!I4cF3IwQ!RVzrGzJQ1OKJFDfOTHEUuhSCFjUgGp9z4kHzGSxnDMo
- See more at: http://www.identi.li/index.php?topic=236482#sthash.ZVd1ky2U.dpuf

Share this article :

Clip Latinos

Comentarios Recientes

Estrenos De Cine - Trailers

Ultimo Trailer

Categorias

Archivo del blog

Popular Posts

 
Support : Creating Website | digho | Mas Template
Copyright © 2011. diGHO's Mkvs - All Rights Reserved
Template Created by Creating Website Published by Mas Template
Proudly powered by Blogger